<?xml version="1.0" standalone="no"?>
<!DOCTYPE svg PUBLIC "-//W3C//DTD SVG 1.1//EN" "http://www.w3.org/Graphics/SVG/1.1/DTD/svg11.dtd" >
<svg xmlns="http://www.w3.org/2000/svg">
<defs>
  <font id="icons" horiz-adv-x="2468.1">
    <font-face font-family="icons"
      units-per-em="1792" ascent="1536"
      descent="256" />
    <missing-glyph horiz-adv-x="0" />
    <glyph glyph-name="arrow-left"
      unicode="&#xEA01;"
      horiz-adv-x="1500" d="M662.556 1107.583C686.755 1131.781 686.768 1174.144 662.556 1198.355C638.359 1222.556 595.993 1222.556 571.784 1198.355L60.416 686.989L60.416 686.989C36.219 662.777 36.219 620.4150000000001 60.416 596.217L568.755 81.8209999999999C592.965 57.6099999999999 635.329 57.6099999999999 659.54 81.8209999999999L659.54 81.8209999999999C683.752 106.0259999999998 683.752 148.3899999999999 659.54 172.6009999999999L263.159 575.021L1399.185 578.0569999999999C1435.49 578.0569999999999 1462.724 605.286 1462.724 641.5959999999999C1462.7169999999999 677.9009999999998 1435.49 705.1429999999999 1399.1779999999999 705.1429999999999L260.1299999999999 705.1429999999999L662.556 1107.583L662.556 1107.583z" />
    <glyph glyph-name="arrow-right"
      unicode="&#xEA02;"
      horiz-adv-x="1500" d="M839.399 172.587C815.2 148.3889999999999 815.187 106.0260000000001 839.399 81.8150000000001C863.596 57.614 905.962 57.614 930.171 81.8150000000001L1441.539 593.181L1441.539 593.181C1465.7359999999999 617.393 1465.7359999999999 659.755 1441.539 683.9530000000001L933.201 1198.349C908.991 1222.56 866.6270000000001 1222.56 842.416 1198.349L842.416 1198.349C818.2040000000001 1174.144 818.2040000000001 1131.78 842.416 1107.569L1238.797 705.1479999999999L102.771 702.112C66.466 702.112 39.232 674.8829999999999 39.232 638.573C39.238 602.268 66.466 575.026 102.777 575.026H1241.826L839.399 172.587L839.399 172.587z" />
    <glyph glyph-name="calend"
      unicode="&#xEA03;"
      horiz-adv-x="1200" d="M361.9 1235.3C394.8 1235.3 421.4 1208.6 421.4 1175.8V1116.3H778.5999999999999V1175.8C778.5999999999999 1208.7 805.3 1235.3 838.0999999999999 1235.3C870.9999999999999 1235.3 897.5999999999999 1208.6 897.5999999999999 1175.8V1116.3H1016.7C1115.3 1116.3 1195.3 1036.3 1195.3 937.7V223.4000000000001C1195.3 124.8000000000002 1115.3 44.8000000000002 1016.7 44.8000000000002H183.3C84.7 44.8000000000002 4.7 124.8000000000002 4.7 223.4000000000001V937.6C4.7 1036.2 84.7 1116.2 183.3 1116.2H302.4V1175.7C302.4 1208.6 329 1235.3 361.9 1235.3zM302.4 997.2H183.3C150.4 997.2 123.8 970.5 123.8 937.7V223.4000000000001C123.8 190.5 150.5 163.9000000000001 183.3 163.9000000000001H1016.7C1049.6000000000001 163.9000000000001 1076.2 190.6000000000001 1076.2 223.4000000000001V937.6C1076.2 970.5 1049.5 997.1 1016.7 997.1H897.6V937.6C897.6 904.7 870.9 878.1 838.1 878.1C805.2 878.1 778.6 904.8 778.6 937.6V997.1H421.4V937.6C421.4 904.7 394.7 878.1 361.9 878.1C329 878.1 302.4 904.8 302.4 937.6V997.2zM242.8 699.5C242.8 732.4 269.5 759 302.3 759H897.5999999999999C930.4999999999998 759 957.1 732.3 957.1 699.5C957.1 666.6 930.3999999999997 640 897.5999999999999 640H302.4C269.5 640 242.8 666.7 242.8 699.5z" />
    <glyph glyph-name="check"
      unicode="&#xEA04;"
      horiz-adv-x="1696.3" d="M1635.9 1223.3C1675.8000000000002 1183.4 1675.8000000000002 1118.7 1635.9 1078.8L613.8 56.7000000000001C573.9 16.8 509.1999999999999 16.8 469.3 56.7000000000001L60.4 465.5C20.5 505.4000000000001 20.5 570.1 60.4 610C100.3 649.9 165 649.9 204.9 610L541.5 273.4000000000001L1491.3 1223.2C1531.3 1263.2 1596 1263.2 1635.9 1223.3z" />
    <glyph glyph-name="chevron-down"
      unicode="&#xEA05;"
      horiz-adv-x="2468.1" d="M122 1247C178.3 1303.3 269.7 1303.3 326.1 1247L1234.1 339L2142.1 1247C2198.4 1303.3 2289.7999999999997 1303.3 2346.2 1247C2402.5 1190.7 2402.5 1099.3 2346.2 1042.9L1336.1999999999998 32.9000000000001C1279.8999999999999 -23.3999999999999 1188.4999999999998 -23.3999999999999 1132.1 32.9000000000001L122 1043C65.7 1099.3 65.7 1190.7 122 1247z" />
    <glyph glyph-name="citation"
      unicode="&#xEA06;"
      horiz-adv-x="1705.3" d="M1674.4 1310.4C1461.7 1257.7 1297.4 1152.4 1171.7 994.4C1046 841.1 988 654.4 988 438.9000000000001C988 304.8000000000002 1017 189.9000000000001 1079.8 103.7000000000001C1147.5 17.5 1234.5 -30.3999999999999 1345.6999999999998 -30.3999999999999C1437.4999999999998 -30.3999999999999 1510.1 -1.6999999999998 1568.1 51.0000000000002C1626.1 108.5000000000002 1659.8999999999999 180.3000000000002 1659.8999999999999 266.5000000000003C1659.8999999999999 352.7000000000003 1630.8999999999999 419.7000000000003 1577.6999999999998 477.2000000000003C1519.6999999999998 534.7000000000003 1447.1999999999998 558.6000000000003 1364.9999999999998 558.6000000000003C1316.6999999999998 558.6000000000003 1277.9999999999998 553.8000000000003 1258.5999999999997 544.2000000000003C1258.5999999999997 659.1000000000003 1292.3999999999996 764.5000000000002 1364.9999999999998 855.5000000000002C1442.2999999999997 960.8000000000002 1543.8999999999999 1032.7000000000003 1674.3999999999996 1071.0000000000002V1310.4zM717.3 1310.4C504.6 1257.7 340.3 1152.4 219.4 994.4C93.7 841.1 30.9 654.4 30.9 438.9000000000001C30.9 300 59.9 189.9000000000001 127.6 103.7000000000001C190.4 17.5 277.5 -30.3999999999999 388.6 -30.3999999999999C485.3 -30.3999999999999 562.6 -1.6999999999998 620.6 51.0000000000002C673.8000000000001 108.5000000000002 702.8000000000001 180.3000000000002 702.8000000000001 266.5000000000003C702.8000000000001 352.7000000000003 673.8000000000001 419.7000000000003 615.8000000000001 477.2000000000003C557.8000000000001 534.7000000000003 490.1000000000001 558.6000000000003 412.8000000000001 558.6000000000003C359.6000000000001 558.6000000000003 321.0000000000001 553.8000000000003 301.6000000000001 544.2000000000003C301.6000000000001 659.1000000000003 335.4000000000001 764.5000000000002 412.8000000000001 860.2000000000003C485.3000000000001 960.8000000000002 586.8000000000001 1032.6000000000004 717.3000000000001 1070.9000000000003V1310.4z" />
    <glyph glyph-name="cross"
      unicode="&#xEA07;"
      horiz-adv-x="1310" d="M851.46 638.84L1276.276 1063.656C1325.026 1112.406 1318.0610000000001 1193.656 1262.348 1247.048C1208.955 1300.441 1125.383 1307.404 1078.955 1260.976L654.139 836.16L229.321 1260.976C180.572 1309.726 99.322 1302.762 45.929 1247.048C-7.464 1193.656 -14.427 1110.085 32 1063.656L456.818 638.84L34.323 216.3440000000001C-14.427 167.595 -7.463 86.3440000000001 48.251 32.952C103.965 -20.441 185.215 -27.404 231.643 19.0239999999999L654.139 441.5189999999998L1076.636 19.0239999999999C1125.384 -29.7260000000001 1206.636 -22.7620000000002 1260.029 32.952C1313.42 86.3440000000001 1320.384 169.916 1273.957 216.3440000000001L851.46 638.84z" />
    <glyph glyph-name="email"
      unicode="&#xEA08;"
      horiz-adv-x="1843" d="M1548.2 1356.2H294.8C146.4 1356.2 26.2 1236 26.2 1087.7V999.6C26.2 998.7 26.2 997.9 26.2 997V192.4000000000001C26.2 44.1000000000001 146.5 -76.1999999999998 294.8 -76.1999999999998H1548.2C1696.5 -76.1999999999998 1816.8 44.0000000000002 1816.8 192.4000000000001V996.9C1816.8 997.8 1816.8 998.6 1816.8 999.5V1087.6C1816.8 1236 1696.6 1356.2 1548.2 1356.2zM1637.8 192.3C1637.8 142.8 1597.7 102.8 1548.3 102.8H294.8C245.4 102.8 205.3 142.8999999999999 205.3 192.3V830.8L772.5999999999999 452.5999999999999C862.8 392.5 980.3999999999997 392.5 1070.6 452.5999999999999L1637.8999999999999 830.8V192.3zM1637.8 1046L971.2 601.6C941.1 581.6 901.9 581.6 871.9000000000001 601.6L205.2 1046V1087.6C205.2 1137.1 245.3 1177.1 294.7 1177.1H1548.1000000000001C1597.6000000000001 1177.1 1637.6000000000001 1137 1637.6000000000001 1087.6V1046z" />
    <glyph glyph-name="facebook"
      unicode="&#xEA09;"
      horiz-adv-x="1120" d="M976.99 528L1026.76 852.31H715.575V1062.7649999999999C715.575 1151.49 759.0450000000001 1237.975 898.415 1237.975H1039.885V1514.09S911.505 1536 788.76 1536C532.49 1536 364.9800000000001 1380.67 364.9800000000001 1099.48V852.31H80.115V528H364.98V-256H715.5749999999999V528z" />
    <glyph glyph-name="google-plus"
      unicode="&#xEA0A;"
      horiz-adv-x="2240" d="M1351.2134999999998 736.264C1357.6325 702.342 1362.214 668.4200000000001 1362.214 624.418C1362.214 240.2825000000001 1104.5964999999999 -32 716.8000000000001 -32C345.5060000000001 -32 44.8 268.7025000000001 44.8 640S345.5060000000001 1312 716.8000000000001 1312C898.324 1312 1049.5905000000002 1245.9935 1166.9385 1135.978L984.4975 960.873C934.9900000000002 1008.5465 847.8995000000001 1064.4695 716.8000000000001 1064.4695C487.6060000000001 1064.4695 300.5800000000001 874.6959999999999 300.5800000000001 640C300.5800000000001 405.3040000000001 487.606 215.5305000000001 716.8000000000001 215.5305000000001C982.6635000000002 215.5305000000001 1082.5955 407.1380000000002 1098.1775 505.2359999999999H716.8000000000001V736.2674999999999H1351.2135zM2000.1345 713.7344999999999V908.8H1804.131V713.7345H1609.0655V517.7310000000001H1804.131V322.6655000000001H2000.1345V517.7310000000001H2195.2000000000003V713.7345000000001H2000.1345000000003z" />
    <glyph glyph-name="instagram"
      unicode="&#xEA0B;"
      horiz-adv-x="1568" d="M784.35 1042.5C561.75 1042.5 382.2 862.9499999999999 382.2 640.35S561.75 238.2000000000001 784.35 238.2000000000001S1186.5 417.75 1186.5 640.35S1006.95 1042.5 784.35 1042.5zM784.35 378.8999999999999C640.5 378.8999999999999 522.8999999999999 496.1499999999999 522.8999999999999 640.3499999999999S640.1499999999999 901.7999999999998 784.3499999999999 901.7999999999998S1045.7999999999997 784.5499999999998 1045.7999999999997 640.3499999999999S928.1999999999998 378.8999999999999 784.3499999999999 378.8999999999999zM1296.75 1058.9499999999998C1296.75 1006.8 1254.75 965.1499999999997 1202.95 965.1499999999997C1150.8 965.1499999999997 1109.1499999999999 1007.1499999999997 1109.1499999999999 1058.9499999999998S1151.1499999999999 1152.75 1202.95 1152.75S1296.75 1110.75 1296.75 1058.9499999999998zM1563.1000000000001 963.75C1557.15 1089.4 1528.4500000000003 1200.7 1436.4 1292.4C1344.7000000000003 1384.1 1233.4 1412.8 1107.75 1419.1C978.25 1426.45 590.1 1426.45 460.6 1419.1C335.3 1413.15 224 1384.45 131.95 1292.75S11.55 1089.75 5.25 964.1C-2.1000000000001 834.6 -2.1000000000001 446.4500000000001 5.25 316.9500000000001C11.2 191.3 39.9 80 131.95 -11.7000000000003S334.95 -132.1000000000001 460.6 -138.4000000000001C590.1 -145.7500000000002 978.25 -145.7500000000002 1107.75 -138.4000000000001C1233.3999999999999 -132.4500000000003 1344.7 -103.7500000000002 1436.3999999999999 -11.7000000000003C1528.1 79.9999999999998 1556.7999999999997 191.2999999999997 1563.1 316.9499999999998C1570.45 446.4499999999998 1570.45 834.2499999999998 1563.1 963.7499999999998zM1395.8 178C1368.5 109.3999999999999 1315.65 56.55 1246.7 28.8999999999999C1143.45 -12.05 898.4499999999999 -2.6000000000001 784.35 -2.6000000000001S424.9 -11.7000000000003 322 28.8999999999999C253.4000000000001 56.2 200.55 109.0499999999997 172.9 178C131.95 281.25 141.4 526.25 141.4 640.35S132.3 999.8 172.9 1102.6999999999998C200.2 1171.3 253.05 1224.15 322 1251.8C425.25 1292.75 670.25 1283.3 784.35 1283.3S1143.8 1292.3999999999999 1246.7 1251.8C1315.3 1224.5 1368.1499999999999 1171.6499999999999 1395.8 1102.6999999999998C1436.75 999.45 1427.3 754.4499999999999 1427.3 640.35S1436.75 280.8999999999999 1395.8 178z" />
    <glyph glyph-name="link"
      unicode="&#xEA0C;"
      horiz-adv-x="1583.4" d="M1321.7 1170C1234.5 1257.2 1093.1000000000001 1257.2 1005.9 1170L924.1000000000003 1088.2C895.0000000000001 1059.1 847.9000000000001 1059.1 818.8000000000002 1088.2C789.7000000000002 1117.3 789.7000000000002 1164.4 818.8000000000002 1193.5L900.6000000000001 1275.3C1045.9 1420.6 1281.6000000000001 1420.6 1426.9 1275.3C1572.2 1130 1572.2 894.3 1426.9 749L1129.2 451.3C983.9 306 748.2 306 602.9000000000001 451.3C573.8000000000001 480.3999999999999 573.8000000000001 527.5 602.9000000000001 556.5999999999999C632.0000000000001 585.6999999999999 679.1000000000001 585.6999999999999 708.2 556.5999999999999C795.4000000000001 469.3999999999999 936.8 469.3999999999999 1024 556.5999999999999L1321.7 854.3C1408.9 941.5 1408.9 1082.8 1321.7 1170zM875.1 723.5C787.9 810.7 646.5 810.7 559.3 723.5L261.6 425.8C174.4 338.5999999999999 174.4 197.2000000000001 261.6 110C348.8 22.8 490.1999999999999 22.8 577.4 110L659.4 192C688.5 221.0999999999999 735.6 221.0999999999999 764.6999999999999 192C793.8 162.9000000000001 793.8 115.8 764.6999999999999 86.7000000000001L682.6999999999999 4.7C537.3999999999999 -140.5999999999999 301.7 -140.5999999999999 156.4 4.7C11.1 150 11.1 385.7000000000001 156.4 531L454.1 828.7C599.4 974 835.0999999999999 974 980.3999999999997 828.7C1009.4999999999998 799.6 1009.4999999999998 752.5 980.3999999999997 723.4000000000001C951.3 694.4 904.2 694.4 875.1 723.5z" />
    <glyph glyph-name="linkedin"
      unicode="&#xEA0D;"
      horiz-adv-x="1568" d="M1456 1424H111.65C50.05 1424 0 1373.25 0 1310.95V-30.95C0 -93.25 50.05 -144 111.65 -144H1456C1517.6000000000001 -144 1568 -93.25 1568 -30.95V1310.95C1568 1373.25 1517.6000000000001 1424 1456 1424zM473.9 80H241.5V828.3000000000001H474.25V80zM357.7 930.5C283.1500000000001 930.5 222.95 991.05 222.95 1065.25S283.1500000000001 1200 357.7 1200C431.9000000000001 1200 492.4499999999999 1139.45 492.4499999999999 1065.25C492.4499999999999 990.7 432.25 930.5 357.7 930.5zM1345.05 80H1112.6499999999999V444C1112.6499999999999 530.8000000000001 1110.8999999999999 642.4499999999999 991.8999999999997 642.4499999999999C870.8 642.4499999999999 852.2499999999999 547.9499999999999 852.2499999999999 450.3V80H619.8499999999999V828.3000000000001H842.7999999999998V726.1000000000001H845.9499999999998C877.0999999999999 784.9000000000001 953.0499999999998 846.8500000000001 1066.1 846.8500000000001C1301.2999999999997 846.8500000000001 1345.0499999999997 691.8000000000001 1345.0499999999997 490.2000000000003V80z" />
    <glyph glyph-name="phone"
      unicode="&#xEA0E;"
      horiz-adv-x="1529.1" d="M48.4 1141.3C48.4 1260 144.6 1356.2 263.3 1356.2H498.1C559.8000000000001 1356.2 614.5 1316.7 634 1258.3L741.3 936.5C763.8 868.9 733.1999999999999 795 669.5 763.1L572.3 714.5C635.8 603.6 728.0999999999999 511.3 839 447.8L887.6 545C919.5 608.8 993.4 639.4 1061 616.8L1382.8 509.5C1441.3 490 1480.7 435.3 1480.7 373.5999999999999V138.8C1480.7 20.0999999999999 1384.5 -76.1000000000001 1265.8 -76.1000000000001H1194.2C561.4000000000001 -76.1000000000001 48.3 436.8999999999999 48.3 1069.8V1141.3zM263.3 1212.9C223.7 1212.9 191.7 1180.8 191.7 1141.3V1069.6999999999998C191.7 515.9999999999999 640.6 67.0999999999999 1194.3 67.0999999999999H1265.8999999999999C1305.4999999999998 67.0999999999999 1337.4999999999998 99.1999999999998 1337.4999999999998 138.6999999999998V373.4999999999998L1015.6999999999998 480.7999999999997L934.8999999999997 319.0999999999997C917.6999999999998 284.6999999999996 876.4999999999999 269.9999999999998 841.3999999999999 285.7999999999998C650.3999999999999 371.8999999999997 496.5999999999999 525.6999999999997 410.4999999999999 716.6999999999997C394.6999999999999 751.6999999999997 409.3999999999999 792.9999999999997 443.7999999999999 810.1999999999997L605.4999999999999 890.9999999999997L498.1 1212.9H263.3z" />
    <glyph glyph-name="pinterest"
      unicode="&#xEA0F;"
      horiz-adv-x="1344" d="M714 1513.25C354.9000000000001 1513.25 0 1273.85 0 886.4C0 640 138.6 500 222.6 500C257.25 500 277.2 596.6000000000001 277.2 623.8999999999999C277.2 656.4499999999999 194.25 725.7499999999999 194.25 861.1999999999999C194.25 1142.6 408.45 1342.1 685.65 1342.1C924 1342.1 1100.3999999999999 1206.65 1100.3999999999999 957.8C1100.3999999999999 771.95 1025.85 423.3500000000002 784.3499999999999 423.3500000000002C697.1999999999998 423.3500000000002 622.6499999999999 486.3500000000001 622.6499999999999 576.6500000000001C622.6499999999999 708.9500000000002 715.05 837.0500000000002 715.05 973.5500000000002C715.05 1205.2500000000002 386.3999999999999 1163.2500000000002 386.3999999999999 883.2500000000001C386.3999999999999 824.45 393.7499999999999 759.3500000000001 419.9999999999999 705.8000000000001C371.7 497.9000000000001 272.9999999999999 188.1499999999999 272.9999999999999 -26.0499999999997C272.9999999999999 -92.1999999999998 282.45 -157.2999999999997 288.7499999999999 -223.4499999999998C300.6499999999999 -236.7499999999997 294.7 -235.3499999999997 312.8999999999999 -228.6999999999998C489.3 12.8000000000002 482.9999999999999 60.0500000000002 562.8 376.1000000000004C605.85 294.2000000000003 717.1499999999999 250.1000000000004 805.3499999999999 250.1000000000004C1177.0499999999997 250.1000000000004 1344 612.3500000000003 1344 938.9000000000004C1344 1286.45 1043.7 1513.25 714 1513.25z" />
    <glyph glyph-name="subscribe"
      unicode="&#xEA10;"
      horiz-adv-x="1200" d="M367.2 1126.4C392.3 1197.3 459.8 1247.9 539.2 1247.9H660.7C740.1 1247.9 807.6 1197.1 832.7 1126.4H903.9C1004.6000000000003 1126.4 1086.3000000000002 1044.8 1086.3000000000002 944V214.5999999999999C1086.3000000000002 113.8999999999999 1004.7000000000002 32.1999999999998 903.9000000000002 32.1999999999998H296.1C195.3 32.2999999999997 113.7 113.8999999999999 113.7 214.5999999999999V944.1C113.7 1044.8 195.3 1126.5 296.1 1126.5H367.2000000000001V1126.4zM367.2 1004.8H296C262.5 1004.8 235.2 977.6 235.2 944V214.5999999999999C235.2 181.0999999999999 262.4 153.8 296 153.8H903.9C937.4 153.8 964.7 181 964.7 214.5999999999999V944.1C964.7 977.6 937.4999999999998 1004.9 903.9 1004.9H832.6999999999999C807.5999999999999 934 740.0999999999999 883.4 660.6999999999999 883.4H539.2C459.9 883.3 392.2 934 367.2 1004.8zM539.2 1126.4C505.7 1126.4 478.4 1099.2 478.4 1065.6S505.6 1004.8 539.2 1004.8H660.7C694.2 1004.8 721.5 1032 721.5 1065.6S694.3 1126.4 660.7 1126.4H539.2zM825.3 683.1C849.0999999999999 659.3000000000001 849.0999999999999 620.9 825.3 597.2L582.1 354C558.3000000000001 330.2000000000001 519.9 330.2000000000001 496.2 354L374.7000000000001 475.5C350.9000000000001 499.3 350.9000000000001 537.7 374.7000000000001 561.4C398.5000000000001 585.1999999999999 436.9000000000001 585.1999999999999 460.6 561.4L539.2 482.8L739.4000000000001 683C763.2 706.8 801.6 706.8 825.3 683.1z" />
    <glyph glyph-name="tiktok"
      unicode="&#xEA11;"
      horiz-adv-x="1568" d="M1568 801.315A735.21 735.21 0 0 0 1138.305 938.69V313.1700000000001A568.9250000000001 568.9250000000001 0 1 0 647.5 876.915V562.3000000000001A261.17 261.17 0 1 1 830.305 313.1700000000001V1536L1138.305 1536A424.1300000000001 424.1300000000001 0 0 1 1144.815 1458.405H1144.815A427.63 427.63 0 0 1 1333.5 1177.635A425.0050000000001 425.0050000000001 0 0 1 1568 1107.145z" />
    <glyph glyph-name="tumblr"
      unicode="&#xEA12;"
      horiz-adv-x="1120" d="M1084.3 -145.0499999999999C1036.7 -195.7999999999999 909.3 -256 743.4 -256C320.6 -256 228.9000000000001 54.8 228.9000000000001 236.1000000000002V740.1000000000001H62.65C43.4 740.1000000000001 27.65 755.8500000000001 27.65 775.1000000000001V1013.1000000000003C27.65 1038.3000000000002 43.4 1060.7 67.2 1069.1000000000001C284.2 1145.4 352.45 1335.1000000000001 362.25 1478.95C365.05 1517.45 385 1536 418.6 1536H666.75C686 1536 701.75 1520.25 701.75 1501V1097.8000000000002H992.25C1011.5 1097.8000000000002 1027.25 1082.4 1027.25 1063.15V777.1999999999999C1027.25 757.9499999999999 1011.5 742.1999999999999 992.25 742.1999999999999H700.35V276C700.35 156.3 783.3 88.3999999999999 938.3500000000003 150.7000000000001C955.15 157.3499999999999 969.8500000000003 161.8999999999999 982.8 158.3999999999999C995.05 155.25 1003.1000000000003 146.5 1008.7 130.75L1085.7 -94.2999999999999C1092 -111.7999999999999 1097.25 -131.4000000000001 1084.3 -145.0499999999999z" />
    <glyph glyph-name="twitter"
      unicode="&#xEA13;"
      horiz-adv-x="1792" d="M1607.795 1004.994C1608.9325 989.076 1608.9325 973.1545 1608.9325 957.2365C1608.9325 471.7165 1239.3919999999998 -87.7165 563.9795 -87.7165C355.8975000000001 -87.7165 162.5995 -27.45 0 77.1545000000001C29.5645 73.7455 57.988 72.6080000000002 88.69 72.6080000000002C260.3825 72.6080000000002 418.4355 130.596 544.649 229.52C383.187 232.9325000000001 247.877 338.6780000000001 201.257 484.222C224.0000000000001 480.8130000000001 246.7395000000001 478.538 270.62 478.538C303.5935000000001 478.538 336.5705000000001 483.088 367.2690000000001 491.0435C198.9855 525.1579999999999 72.7685000000001 672.9734999999998 72.7685000000001 851.491V856.0375C121.6600000000001 828.748 178.5175000000001 811.6925 238.7770000000001 809.421C139.853 875.3715 75.0435 987.9385 75.0435 1115.2895C75.0435 1183.5115 93.233 1246.0495 125.0725000000001 1300.6285C305.8650000000001 1077.766 577.6225000000001 932.2255 882.3500000000001 916.304C876.666 943.5935 873.2535000000001 972.017 873.2535000000001 1000.444C873.2535000000001 1202.842 1036.9905 1367.713 1240.5225000000003 1367.713C1346.2680000000003 1367.713 1441.7795000000003 1323.368 1508.8675000000003 1251.7335C1591.8700000000001 1267.6515 1671.4635000000003 1298.3535 1741.9640000000002 1340.4235C1714.6710000000003 1255.1425 1656.6830000000002 1183.508 1580.5020000000002 1138.029C1654.4115000000002 1145.9845 1726.0460000000003 1166.4560000000001 1791.9930000000002 1194.8795C1741.9710000000002 1122.111 1679.4295000000002 1057.3015 1607.7950000000003 1004.994z" />
    <glyph glyph-name="viadeo"
      unicode="&#xEA14;"
      horiz-adv-x="1568" d="M966.7 1009.25V1006.8C904.05 1190.9 817.6 1368.7 718.9 1536C870.4499999999999 1433.8 953.3999999999997 1186 966.7 1009.25zM1081.1499999999999 583.3000000000001C1107.75 519.6000000000001 1119.6499999999999 452.05 1119.6499999999999 383.8C1119.6499999999999 111.8500000000001 917.35 -109.7 637.3499999999999 -104.1000000000001L650.6499999999999 -103.0499999999999C910.35 60.3999999999999 1033.2 312.0499999999998 1033.2 614.7999999999998C1033.2 748.1499999999999 1010.45 880.4499999999998 967.05 1006.7999999999998C970.55 965.85 970.55 923.85 970.55 882.8999999999999C970.55 561.5999999999999 907.2 37.2999999999997 562.45 -97.1000000000001C332.5 -57.2 172.9 143 172.9 383.8C172.9 648.4 373.8 881.8500000000001 646.8000000000001 881.8500000000001C705.6000000000001 881.8500000000001 764.75 871.0000000000001 818.65 848.2500000000001C824.6 901.1000000000003 841.4 952.9 865.5500000000001 999.8C795.9 1025 721.3500000000001 1037.25 646.8000000000001 1037.25C81.55 1037.25 -188.6499999999999 351.6000000000002 192.15 -60.7C429.8000000000001 -321.7999999999997 864.15 -319.3500000000001 1101.4500000000003 -60.7C1299.5500000000002 153.8500000000001 1314.6000000000001 437.7000000000003 1228.8500000000001 642.8000000000001C1184.4 614.8000000000001 1134 594.1500000000001 1081.15 583.3000000000001zM1463.3500000000001 1495.05C1354.8500000000001 1262.3 1178.8 1329.85 1058.05 1214.7C1014.65 1172.7 985.95 1095.7 985.95 1037.9499999999998C985.95 988.6 1001.7 943.1 1027.95 902.1499999999997C1193.85 940.6499999999997 1372 1063.1499999999999 1441.6499999999999 1219.6C1439.2 1200.35 1424.85 1169.1999999999998 1416.45 1152.3999999999999C1345.3999999999999 1027.4499999999998 1190.3500000000001 922.8 1067.5 855.2499999999999C1119.3 804.8499999999999 1185.45 764.9499999999998 1260 764.9499999999998C1536.5 764.9499999999998 1645.3500000000001 1236.0499999999997 1463.3500000000001 1495.0499999999997z" />
    <glyph glyph-name="video"
      unicode="&#xEA15;"
      horiz-adv-x="2180.7" d="M1857.7 1198.5L1522.4 1030.8V1072C1522.4 1250.9 1377.3000000000002 1396 1198.4 1396H334.4C155.5 1396 10.4 1250.9 10.4 1072V208C10.4 29.0999999999999 155.5 -116 334.4 -116H1198.3C1377.2 -116 1522.3 29.0999999999999 1522.3 208V249.2000000000001L1857.6 81.6000000000001C2001.2 9.8000000000002 2170.2 114.2000000000001 2170.2 274.8000000000002V1005.3C2170.1 1165.8 2001.2 1270.3 1857.7 1198.5zM1306.2 858.3C1306.2 856.8 1306.2 855.3 1306.2 853.6999999999999V426.5C1306.2 425 1306.2 423.5 1306.2 421.9000000000001V208.1000000000001C1306.2 148.5000000000002 1257.8 100.1000000000001 1198.2 100.1000000000001H334.4C274.8 100.1000000000001 226.4 148.5000000000002 226.4 208.1000000000001V1072.1C226.4 1131.7 274.8 1180.1 334.4 1180.1H1198.3C1257.8999999999999 1180.1 1306.3 1131.7 1306.3 1072.1V858.3H1306.2zM1954.2 274.9000000000001L1522.2 490.9000000000001V789.3L1954.2 1005.3V274.9000000000001z" />
    <glyph glyph-name="vimeo"
      unicode="&#xEA16;"
      horiz-adv-x="1568" d="M1411.2 1424H156.8C70.35 1424 0 1353.65 0 1267.2V12.8C0 -73.6499999999999 70.35 -144 156.8 -144H1411.2C1497.6499999999999 -144 1568 -73.6499999999999 1568 12.8V1267.2C1568 1353.65 1497.6499999999999 1424 1411.2 1424zM1319.5 903.2C1314.6000000000001 792.9499999999999 1237.6000000000001 641.75 1088.5 450.2999999999998C934.5 250.0999999999999 803.9499999999999 149.9999999999998 697.5500000000001 149.9999999999998C631.4 149.9999999999998 575.75 210.8999999999996 529.9 333.0499999999998C440.6500000000001 659.5999999999999 402.5 851.0499999999998 329 851.0499999999998C320.6 851.0499999999998 290.85 833.1999999999998 240.1 797.8499999999999L186.9 866.4499999999998C317.45 981.2499999999998 442.05 1108.6499999999999 520.1 1115.6499999999999C608.3 1124.05 662.5500000000001 1063.85 682.85 934.6999999999998C755.3 475.5 787.5 406.1999999999998 919.45 614.0999999999999C966.7 688.9999999999999 992.25 746.0499999999998 995.75 785.2499999999999C1008 901.45 905.1000000000003 893.3999999999999 835.4499999999999 863.6499999999999C891.1 1046 997.5 1134.55 1154.6499999999999 1129.6499999999999C1271.2 1126.5 1326.1499999999999 1050.8999999999999 1319.5 903.2z" />
    <glyph glyph-name="weibo"
      unicode="&#xEA17;"
      horiz-adv-x="1792" d="M1424.5 914.4C1451.1000000000001 998.4 1377.6000000000001 1078.1999999999998 1293.6000000000001 1060.3500000000001C1216.6000000000001 1043.5500000000002 1192.8 1158.7 1268.75 1175.15C1444.1000000000001 1213.3000000000002 1591.8 1045.3000000000002 1536.5 878.3500000000001C1512.7 804.1500000000001 1400.7 840.5500000000001 1424.5 914.4zM751.8000000000001 -27.45C379.75 -27.45 0 152.4500000000001 0 449.6000000000002C0 604.6500000000001 98 783.5000000000001 267.05 952.55C616 1301.5 978.25 1305.7 874.65 972.5C860.65 926.65 917.7 952.55 917.7 951.5C1195.95 1069.1 1409.45 1010.3 1316.7 771.6C1303.75 738.6999999999999 1320.55 733.4499999999999 1345.75 725.75C1820.7000000000005 577.6999999999999 1467.55 -27.45 751.8000000000001 -27.45zM1254.75 484.6000000000001C1235.8500000000001 679.5500000000001 980 813.6000000000001 682.85 784.5500000000001C386.05 754.45 162.05 573.5 180.95 378.55S455.6999999999999 49.55 752.85 78.6000000000001C1049.6499999999999 108.7000000000003 1273.6499999999999 289.6500000000001 1254.75 484.6000000000001zM1217.6499999999999 1413.15C1127 1393.55 1158.85 1260.1999999999998 1246.7 1279.1C1499.75 1332.3 1718.5 1094.3 1637.6499999999999 845.1C1611.75 760.4 1739.5 715.6 1768.5499999999997 803.1C1880.2 1152.4 1575.6999999999998 1488.75 1217.6499999999999 1413.15zM942.8999999999997 324.6499999999999C883.05 188.8499999999999 709.0999999999999 114.6499999999999 561.05 162.5999999999999C418.25 208.4500000000001 358.05 349.4999999999998 420 476.5499999999997C481.9499999999999 600.4499999999998 640.85 670.4499999999998 781.8999999999999 634.3999999999999C928.8999999999997 596.5999999999999 1002.75 458.7 942.8999999999997 324.6499999999999zM640.8499999999999 429.6499999999999C595.6999999999998 448.5499999999998 535.8499999999999 428.5999999999999 507.8499999999999 384.5C478.7999999999998 339.3500000000002 492.7999999999998 286.5 537.9499999999998 265.5C583.7999999999998 244.5 645.7499999999999 264.4500000000001 674.7999999999998 310.6499999999999C702.7999999999998 356.5 687.7499999999998 409.7000000000001 640.8499999999999 429.6499999999999zM754.9499999999998 476.5499999999997C737.0999999999999 482.4999999999998 715.0499999999998 474.4499999999998 704.8999999999999 457.6499999999999C694.7499999999998 439.7999999999998 699.9999999999998 420.5499999999998 717.8499999999998 412.5C735.6999999999998 405.5 758.7999999999997 413.55 768.9499999999998 431.3999999999999C778.7499999999998 449.5999999999999 772.7999999999997 469.5499999999997 754.9499999999998 476.5499999999997z" />
    <glyph glyph-name="youtube"
      unicode="&#xEA18;"
      horiz-adv-x="2016" d="M1923.7925 1101.7095C1901.809 1184.4845 1837.0379999999996 1249.6755 1754.7984999999999 1271.799C1605.7335 1312 1008 1312 1008 1312S410.27 1312 261.2015 1271.799C178.962 1249.672 114.191 1184.4845 92.2075 1101.7095C52.2655 951.675 52.2655 638.6419999999998 52.2655 638.6419999999998S52.2655 325.6089999999999 92.2075 175.5745C114.191 92.7994999999999 178.962 30.3244999999999 261.2015 8.201C410.27 -32 1008 -32 1008 -32S1605.73 -32 1754.7984999999999 8.201C1837.0379999999996 30.3245000000002 1901.809 92.7994999999999 1923.7925 175.5745000000002C1963.7345 325.6090000000002 1963.7345 638.642 1963.7345 638.642S1963.7345 951.675 1923.7925 1101.7095000000002zM812.5074999999999 354.4314999999999V922.8525L1312.094 638.635L812.5075 354.4314999999999z" />
  </font>
</defs>
</svg>
